General
ID : 1 (0x1)
Complete name : H:\Jackie Evancho - O Mio Babbino Caro & Nessun Dorma (World's Got Talent China, HunanTV, 2019.04.19).ts
Format : MPEG-TS
File size : 700 MiB
Duration : 12 min 52 s
Overall bit rate mode : Variable
Overall bit rate : 7 607 kb/s


Video
ID : 4020 (0xFB4)
Menu ID : 1 (0x1)
Format : AVC
Format/Info : Advanced Video Codec
Format profile : [email protected]
Format settings : CABAC / 4 Ref Frames
Format settings, CABAC : Yes
Format settings, ReFrames : 4 frames
Codec ID : 27
Duration : 12 min 52 s
Bit rate : 6 778 kb/s
Width : 1 920 pixels
Height : 1 080 pixels
Display aspect ratio : 16:9
Frame rate : 25.000 FPS
Color space : YUV
Chroma subsampling : 4:2:0
Bit depth : 8 bits
Scan type : Interlaced
Scan type, store method : Separated fields
Scan order : Top Field First
Bits/(Pixel*Frame) : 0.131
Stream size : 624 MiB (89%)
Color range : Limited
Color primaries : BT.709
Transfer characteristics : BT.709
Matrix coefficients : BT.709


Audio
ID : 4021 (0xFB5)
Menu ID : 1 (0x1)
Format : AC-3
Format/Info : Audio Coding 3
Codec ID : 6
Duration : 12 min 52 s
Bit rate mode : Constant
Bit rate : 448 kb/s
Channel(s) : 6 channels
Channel positions : Front: L C R, Side: L R, LFE
Sampling rate : 48.0 kHz
Frame rate : 31.250 FPS (1536 SPF)
Bit depth : 16 bits
Compression mode : Lossy
Delay relative to video : -16 ms
Stream size : 41.2 MiB (6%)
Language : English
Service kind : Complete Main