Results 1 to 2 of 2
  1. #1

    Cool Busta Rhymes - Break Ya Neck (P.O)

    Busta Rhymes - Break Ya Neck



    Name: Busta Rhymes - Break Ya Neck

    Source: DVD-Vídeo

    Year: 2002

    Type: Retail

    File Size: 365 MB (383.182.712 bytes)Duration:00:03:41

    Format: Avi
    Video: Xvid 1280x720 (4:3) 29.97fps [Video]
    Audio: MP3 48000Hz stereo 128kbps [Audio]




    Format : AVI
    Format/Info : Audio Video Interleave
    File size : 365 MiB
    Duration : 4mn 11s
    Overall bit rate : 12.2 Mbps
    Writing application : MEncoder SVN-r30881(20100311-gcc4.3.3)
    Writing library : MPlayer

    Video
    ID : 0
    Format : MPEG-4 Visual
    Format profile : Advanced [email protected]
    Format settings, BVOP : Yes
    Format settings, QPel : No
    Format settings, GMC : No warppoints
    Format settings, Matrix : Default (H.263)
    Codec ID : XVID
    Codec ID/Hint : XviD
    Duration : 4mn 11s
    Bit rate : 12.0 Mbps
    Width : 1 280 pixels
    Height : 720 pixels
    Display aspect ratio : 4:3
    Original display aspect ratio : 16:9
    Frame rate : 29.970 fps
    Color space : YUV
    Chroma subsampling : 4:2:0
    Bit depth : 8 bits
    Scan type : Progressive
    Compression mode : Lossy
    Bits/(Pixel*Frame) : 0.435
    Stream size : 361 MiB (99%)
    Writing library : XviD 1.2.1 (UTC 2008-12-04)

    Audio
    ID : 1
    Format : MPEG Audio
    Format version : Version 1
    Format profile : Layer 3
    Mode : Joint stereo
    Mode extension : MS Stereo
    Codec ID : 55
    Codec ID/Hint : MP3
    Duration : 4mn 11s
    Bit rate mode : Constant
    Bit rate : 128 Kbps
    Channel(s) : 2 channels
    Sampling rate : 48.0 KHz
    Compression mode : Lossy
    Delay relative to video : 33ms
    Stream size : 3.84 MiB (1%)
    Alignment : Aligned on interleaves
    Interleave, duration : 24 ms (0.72 video frame)
    Interleave, preload duration : 504 ms
    Writing library : LAME3.98




    Host: MG

  • #2

  • Tags for this Thread

    Posting Permissions

    • You may not post new threads
    • You may not post replies
    • You may not post attachments
    • You may not edit your posts
    •