Code:
GeneralComplete name                  : D:\клипы\Alexandra Stan\Criss Blaziny feat. Alexandra Stan - Au gust zilele.mp4
Format                         : MPEG-4
Format profile                 : Base Media / Version 2
Codec ID                       : mp42 (mp42/mp41)
File size                      : 487 MiB
Duration                       : 3 min 14 s
Overall bit rate mode          : Variable
Overall bit rate               : 21.0 Mb/s
Encoded date                   : UTC 2017-08-03 11:26:57
Tagged date                    : UTC 2017-08-03 11:27:14
TIM                            : 00:00:57:24
TSC                            : 25
TSZ                            : 1


Video
ID                             : 1
Format                         : AVC
Format/Info                    : Advanced Video Codec
Format profile                 : [email protected]
Format settings                : CABAC / 3 Ref Frames
Format settings, CABAC         : Yes
Format settings, ReFrames      : 3 frames
Codec ID                       : avc1
Codec ID/Info                  : Advanced Video Coding
Duration                       : 3 min 14 s
Bit rate                       : 20.7 Mb/s
Width                          : 1 920 pixels
Height                         : 1 080 pixels
Display aspect ratio           : 16:9
Frame rate mode                : Constant
Frame rate                     : 25.000 FPS
Standard                       : PAL
Color space                    : YUV
Chroma subsampling             : 4:2:0
Bit depth                      : 8 bits
Scan type                      : Progressive
Bits/(Pixel*Frame)             : 0.399
Stream size                    : 479 MiB (98%)
Language                       : English
Encoded date                   : UTC 2017-08-03 11:26:57
Tagged date                    : UTC 2017-08-03 11:26:57
Color range                    : Limited
Color primaries                : BT.709
Transfer characteristics       : BT.709
Matrix coefficients            : BT.709
Codec configuration box        : avcC


Audio
ID                             : 2
Format                         : AAC LC
Format/Info                    : Advanced Audio Codec Low Complexity
Codec ID                       : mp4a-40-2
Duration                       : 3 min 14 s
Source duration                : 3 min 14 s
Bit rate mode                  : Variable
Bit rate                       : 317 kb/s
Maximum bit rate               : 429 kb/s
Channel(s)                     : 2 channels
Channel layout                 : L R
Sampling rate                  : 48.0 kHz
Frame rate                     : 46.875 FPS (1024 SPF)
Compression mode               : Lossy
Stream size                    : 7.35 MiB (2%)
Source stream size             : 7.35 MiB (2%)
Language                       : English
Encoded date                   : UTC 2017-08-03 11:26:57
Tagged date                    : UTC 2017-08-03 11:26:57