Results 1 to 3 of 3
  1. #1

    Wink Akon feat Styles P- Locked Up (2004)

    Akon feat Styles P- Locked Up




    Name:Akon feat Styles P- Locked Up
    Source: DVD-Vídeo
    Year: 2004
    Type: Retail
    File Size: 185 MB (194.256.896 bytes)
    Duration: 00:03:59
    Format: Vob
    Video: MPEG2 Video 1280x720 29.97fps [Video]
    Audio: Dolby AC3 48000Hz stereo 448kbps [Audio]


    Format : MPEG-PS
    File size : 185 MiB
    Duration : 3mn 59s
    Overall bit rate mode : Variable
    Overall bit rate : 6 488 Kbps

    Video
    ID : 224 (0xE0)
    Format : MPEG Video
    Commercial name : HDV 720p
    Format version : Version 2
    Format profile : [email protected] 1440
    Format settings, BVOP : No
    Format settings, Matrix : Default
    Format settings, GOP : N=15
    Duration : 3mn 59s
    Bit rate mode : Variable
    Bit rate : 5 911 Kbps
    Maximum bit rate : 9 000 Kbps
    Width : 1 280 pixels
    Height : 720 pixels
    Display aspect ratio : 16:9
    Frame rate : 29.970 fps
    Color space : YUV
    Chroma subsampling : 4:2:0
    Bit depth : 8 bits
    Scan type : Progressive
    Compression mode : Lossy
    Bits/(Pixel*Frame) : 0.214
    Time code of first frame : 00:00:00:00
    Time code source : Group of pictures header
    Stream size : 169 MiB (91%)

    Audio
    ID : 189 (0xBD)-128 (0x80)
    Format : AC-3
    Format/Info : Audio Coding 3
    Mode extension : CM (complete main)
    Format settings, Endianness : Big
    Muxing mode : DVD-Video
    Duration : 3mn 59s
    Bit rate mode : Constant
    Bit rate : 448 Kbps
    Channel(s) : 2 channels
    Channel positions : Front: L R
    Sampling rate : 48.0 KHz
    Bit depth : 16 bits
    Compression mode : Lossy
    Stream size : 12.8 MiB (7%)



  • #2

    Default

    i gotta check it out dude

  • #3

    Default

    This is one of my favorite songs,and music videos. Thanks for posting this video.

  • Tags for this Thread

    Posting Permissions

    • You may not post new threads
    • You may not post replies
    • You may not post attachments
    • You may not edit your posts
    •