Results 1 to 3 of 3
  1. #1

    Cool Mario Winans ft. Enya and P. Diddy - I Don't Wanna Know

    Mario Winans ft. Enya and P. Diddy - I Don't Wanna Know




    Name: Mario Winans ft. Enya and P. Diddy - I Don't Wanna Know
    Source: DVD-Vídeo
    Year: 2002
    Type: Retail
    File Size: 190 MB (200.204.288 bytes)
    Duration: 00:04:16
    Format: Vob
    Video: MPEG2 Video 720x480 29.97fps [Video]
    Audio: Dolby AC3 48000Hz stereo 448kbps [Audio]


    Format : MPEG-PS
    File size : 191 MiB
    Duration : 4mn 16s
    Overall bit rate : 6 256 Kbps

    Video
    ID : 224 (0xE0)
    Format : MPEG Video
    Format version : Version 2
    Format profile : [email protected]
    Format settings, BVOP : No
    Format settings, Matrix : Custom
    Format settings, GOP : Variable
    Duration : 4mn 16s
    Bit rate : 4 595 Kbps
    Maximum bit rate : 6 000 Kbps
    Width : 720 pixels
    Height : 480 pixels
    Display aspect ratio : 4:3
    Frame rate : 29.970 fps
    Standard : NTSC
    Color space : YUV
    Chroma subsampling : 4:2:0
    Bit depth : 8 bits
    Scan type : Interlaced
    Scan order : Bottom Field First
    Compression mode : Lossy
    Bits/(Pixel*Frame) : 0.444
    Time code of first frame : 00:00:00:00
    Time code source : Group of pictures header
    Stream size : 140 MiB (73%)

    Audio
    ID : 189 (0xBD)-160 (0xA0)
    Format : PCM
    Format settings, Endianness : Big
    Format settings, Sign : Signed
    Muxing mode : DVD-Video
    Duration : 4mn 16s
    Bit rate mode : Constant
    Bit rate : 1 536 Kbps
    Channel(s) : 2 channels
    Sampling rate : 48.0 KHz
    Bit depth : 16 bits
    Stream size : 46.9 MiB (25%)





  • #2

    Default ok thx

    ok thx for support and great collection central box music vob fhd quality large good sound music mpg format forum maintance

  • #3

    Default

    can't find the download link even after i hat thanks

  • Tags for this Thread

    Posting Permissions

    • You may not post new threads
    • You may not post replies
    • You may not post attachments
    • You may not edit your posts
    •