General
ID : 1 (0x1)
Complete name : H:\Mariah Carey - iHeartRadio Music Festival 09-21-2018 Las Vegas Night 1 BACKHAUL 1080i h264 30mbps MPA2-ALANiS.ts
Format : MPEG-TS
File size : 6.19 GiB
Duration : 28 min 31 s
Start time : UTC 2018-09-22 06:17:45
End time : UTC 2018-09-22 06:46:16
Overall bit rate mode : Variable
Overall bit rate : 31.1 Mb/s
Network name : AMV
Original network name : Astra Satellite Network 19,2'E


Video
ID : 481 (0x1E1)
Menu ID : 3 (0x3)
Format : AVC
Format/Info : Advanced Video Codec
Format profile : [email protected]
Format settings : 3 Ref Frames
Format settings, CABAC : No
Format settings, ReFrames : 3 frames
Codec ID : 27
Duration : 28 min 31 s
Bit rate mode : Constant
Bit rate : 29.9 Mb/s
Width : 1 920 pixels
Height : 1 080 pixels
Display aspect ratio : 16:9
Frame rate : 29.970 (30000/1001) FPS
Color space : YUV
Chroma subsampling : 4:2:0
Bit depth : 8 bits
Scan type : Interlaced
Scan type, store method : Separated fields
Scan order : Top Field First
Bits/(Pixel*Frame) : 0.481
Stream size : 5.80 GiB (94%)
Color range : Limited
Color primaries : BT.709
Transfer characteristics : BT.709
Matrix coefficients : BT.709


Audio
ID : 482 (0x1E2)
Menu ID : 3 (0x3)
Format : MPEG Audio
Format version : Version 1
Format profile : Layer 2
Codec ID : 3
Duration : 28 min 31 s
Bit rate mode : Constant
Bit rate : 384 kb/s
Channel(s) : 2 channels
Sampling rate : 48.0 kHz
Frame rate : 41.667 FPS (1152 SPF)
Compression mode : Lossy
Delay relative to video : -12 ms
Stream size : 78.3 MiB (1%)
Language : English


Menu
ID : 480 (0x1E0)
Menu ID : 3 (0x3)
Duration : 28 min 31 s
List : 481 (0x1E1) (AVC) / 482 (0x1E2) (MPEG Audio, English)
Language : / English
Service name : C Band BU
Service provider : AMV
Service type : advanced codec HD digital television
UTC 2018-09-22 00:00:00 : en:C Band BU / en: / / / 24:00:00 / Running