General
ID : 1 (0x1)
Complete name : H:\Celine Dion - A Change Is Gonna Come (Aretha! A Grammy Celebration for the Queen of Soul 2019).ts
Format : MPEG-TS
File size : 219 MiB
Duration : 5 min 3 s
Overall bit rate mode : Variable
Overall bit rate : 6 051 kb/s


Video
ID : 1961 (0x7A9)
Menu ID : 1 (0x1)
Format : AVC
Format/Info : Advanced Video Codec
Format profile : [email protected]
Format settings : CABAC / 4 Ref Frames
Format settings, CABAC : Yes
Format settings, ReFrames : 4 frames
Codec ID : 27
Duration : 5 min 3 s
Bit rate : 5 429 kb/s
Width : 1 920 pixels
Height : 1 080 pixels
Display aspect ratio : 16:9
Frame rate : 25.000 FPS
Standard : Component
Color space : YUV
Chroma subsampling : 4:2:0
Bit depth : 8 bits
Scan type : MBAFF
Scan type, store method : Interleaved fields
Scan order : Top Field First
Bits/(Pixel*Frame) : 0.105
Stream size : 196 MiB (90%)
Color range : Limited
Color primaries : BT.709
Transfer characteristics : BT.709
Matrix coefficients : BT.709


Audio
ID : 1962 (0x7AA)
Menu ID : 1 (0x1)
Format : AC-3
Format/Info : Audio Coding 3
Codec ID : 6
Duration : 5 min 3 s
Bit rate mode : Constant
Bit rate : 320 kb/s
Channel(s) : 2 channels
Channel positions : Front: L R
Sampling rate : 48.0 kHz
Frame rate : 31.250 FPS (1536 SPF)
Bit depth : 16 bits
Compression mode : Lossy
Delay relative to video : -8 ms
Stream size : 11.6 MiB (5%)
Language : English
Service kind : Complete Main


Text
ID : 1963 (0x7AB)-801
Menu ID : 1 (0x1)
Format : Teletext Subtitle
Language : English