General
ID : 1 (0x1)
Complete name : H:\Tom Odell - Heal (Tom Odell“COME BACK” 2017)(4K).ts
Format : MPEG-TS
File size : 978 MiB
Duration : 4 min 29 s
Overall bit rate mode : Variable
Overall bit rate : 30.4 Mb/s


Video
ID : 256 (0x100)
Menu ID : 1 (0x1)
Format : HEVC
Format/Info : High Efficiency Video Coding
Format profile : [email protected]@Main
Codec ID : 36
Duration : 4 min 29 s
Bit rate : 28.9 Mb/s
Width : 3 840 pixels
Height : 2 160 pixels
Display aspect ratio : 16:9
Frame rate : 25.000 FPS
Color space : YUV
Chroma subsampling : 4:2:0
Bit depth : 8 bits
Bits/(Pixel*Frame) : 0.139
Stream size : 930 MiB (95%)


Audio
ID : 257 (0x101)
Menu ID : 1 (0x1)
Format : E-AC-3
Format/Info : Enhanced Audio Coding 3
Codec ID : 129
Duration : 4 min 32 s
Bit rate mode : Constant
Bit rate : 3 000 b/s
Channel(s) : 6 channels
Channel positions : Front: L C R, Side: L R, LFE
Sampling rate : 48.0 kHz
Frame rate : 187.500 FPS (256 SPF)
Compression mode : Lossy
Delay relative to video : -2 s 336 ms
Stream size : 99.6 KiB (0%)
Service kind : Complete Main


Menu
ID : 4096 (0x1000)
Menu ID : 1 (0x1)
Duration : 4 min 29 s
List : 256 (0x100) (HEVC) / 257 (0x101) (E-AC-3)
Service name : Service01
Service provider : FFmpeg
Service type : digital television