The Killers - Human Live 2017.mp4
Format : MPEG-4
Genre : Rock
Year : 2017
Type : Retail

File size : 518 MiB
Duration : 3mn 56s
Overall bit rate : 18.4 Mbps


Video
ID : 1
Format : AVC
Format/Info : Advanced Video Codec
Format profile : [email protected]
Format settings, CABAC : No
Format settings, ReFrames : 2 frames
Codec ID : avc1
Codec ID/Info : Advanced Video Coding
Duration : 3mn 56s
Source duration : 3mn 56s
Bit rate : 18.2 Mbps
Width : 1 920 pixels
Height : 1 080 pixels
Display aspect ratio : 16:9
Frame rate mode : Constant
Frame rate : 29.970 fps
Color space : YUV
Chroma subsampling : 4:2:0
Bit depth : 8 bits
Scan type : Progressive
Bits/(Pixel*Frame) : 0.293
Stream size : 514 MiB (99%)
Source stream size : 514 MiB (99%)
Encoded date : UTC 2019-07-21 01:01:45
Tagged date : UTC 2019-07-21 01:01:45
mdhd_Duration : 236603


Audio
ID : 2
Format : AAC
Format/Info : Advanced Audio Codec
Format profile : LC
Codec ID : 40
Duration : 3mn 56s
Bit rate mode : Constant
Bit rate : 128 Kbps
Channel count : 2 channels
Channel positions : Front: L R
Sampling rate : 48.0 KHz
Compression mode : Lossy
Stream size : 3.71 MiB (1%)
Encoded date : UTC 2019-07-21 01:01:45
Tagged date : UTC 2019-07-21 01:01:45
mdhd_Duration : 236608



HOST: MEGA