Results 1 to 2 of 2

Thread: Pachanga - Loco

  1. #1

    Default Pachanga - Loco

    Pachanga - Loco



    Complete name : Pachanga - Loco.
    Format : MPEG-PS
    File size : 154 MiB
    Duration : 3mn 29s
    Overall bit rate mode : Variable
    Overall bit rate : 6 187 Kbps
    Video #224
    ID : 224 (0xE0)
    Format : MPEG Video
    Format version : Version 2
    Format profile : [email protected]
    Format settings, BVOP : Yes
    Format settings, Matrix : Custom
    Format settings, GOP : M=3, N=13
    Duration : 3mn 29s
    Bit rate mode : Variable
    Bit rate : 5 871 Kbps
    Maximum bit rate : 8 000 Kbps
    Width : 720 pixels
    Height : 576 pixels
    Display aspect ratio : 4:3
    Frame rate : 25.000 fps
    Standard : PAL
    Color space : YUV
    Chroma subsampling : 4:2:0
    Bit depth : 8 bits
    Scan type : Progressive
    Scan order : Top Field First
    Compression mode : Lossy
    Bits/(Pixel*Frame) : 0.566
    Stream size : 146 MiB (95%)
    Color primaries : BT.709
    Transfer characteristics : BT.709
    Matrix coefficients : BT.709
    Audio #189-128
    ID : 189 (0xBD)-128 (0x80)
    Format : AC-3
    Format/Info : Audio Coding 3
    Mode extension : CM (complete main)
    Muxing mode : DVD-Video
    Duration : 480ms
    Bit rate mode : Constant
    Bit rate : 192 Kbps
    Channel(s) : 2 channels
    Channel positions : Front: L R
    Sampling rate : 48.0 KHz
    Bit depth : 16 bits
    Compression mode : Lossy
    Delay relative to video : -32ms
    Stream size : 11.3 KiB (0%)

    Download Host: MF


  2. #2

    Thumbs up

    this track good. video hot too

Tags for this Thread

Posting Permissions

  • You may not post new threads
  • You may not post replies
  • You may not post attachments
  • You may not edit your posts
  •