Results 1 to 2 of 2
  1. #1

    Default Various Artists - We Are The World For Haiti [2010]



    Name: Various Artists - We Are The World For Haiti (HDTV 1080 - Clean) [2010]
    Year: 2010 Source: WEB (My Collection)
    File Size: 639.24 MB Duration: 06:51 Format: MPEG-TS

    Video

    ID : 4113 (0x1011)
    Menu ID : 1 (0x1)
    Format : MPEG Video
    Format version : Version 2
    Format profile : [email protected]
    Format settings, BVOP : Yes
    Format settings, Matrix : Custom
    Format settings, GOP : M=3, N=15
    Codec ID : 2
    Duration : 6mn 50s
    Bit rate : 11.5 Mbps
    Maximum bit rate : 13.6 Mbps
    Width : 1 920 pixels
    Height : 1 080 pixels
    Display aspect ratio : 16:9
    Active Format Description : Letterbox 16:9 image, with alternative 4:3 center
    Frame rate : 29.970 fps
    Standard : Component
    Color space : YUV
    Chroma subsampling : 4:2:0
    Bit depth : 8 bits
    Compression mode : Lossy
    Bits/(Pixel*Frame) : 0.184
    Time code of first frame : 00:37:45;04
    Time code source : Group of pictures header
    Stream size : 561 MiB (92%)
    Color primaries : BT.709
    Transfer characteristics : BT.709
    Matrix coefficients : BT.709

    Audio

    ID : 4352 (0x1100)
    Menu ID : 1 (0x1)
    Format : AC-3
    Format/Info : Audio Coding 3
    Mode extension : CM (complete main)
    Format settings, Endianness : Big
    Codec ID : 129
    Duration : 6mn 50s
    Bit rate mode : Constant
    Bit rate : 384 Kbps
    Channel(s) : 6 channels
    Channel positions : Front: L C R, Side: L R, LFE
    Sampling rate : 48.0 KHz
    Bit depth : 16 bits
    Compression mode : Lossy
    Delay relative to video : -105ms
    Stream size : 18.8 MiB (3%)
    Language : English



    QUINCY JONES – Executive Producer
    LIONEL RICHIE – Executive Producer
    WYCLEF JEAN – Executive Producer
    RICKEY MINOR – Producer
    RedOne – Producer

    MICHAEL JACKSON
    CARLOS SANTANA
    JENNIFER HUDSON
    JAMIE FOXX
    SUGARLAND
    ADAM LEVINE
    JASON MRAZ
    EARTH WIND & FIRE
    NATALIE COLE
    THE JONAS BROTHERS
    T-PAIN
    BRIAN WILSON
    JUSTIN BIEBER
    NICOLE SCHERZINGER
    INDIA.ARIE
    JULIANNE HOUGH
    MARY MARY
    MELANIE FIONA
    BEBE WINANS
    MYA
    TYRESE GIBSON
    ANTHONY HAMILTON
    RAPHAEL SAADIQ
    GLADYS KNIGHT
    KERI HILSON
    JOEL & BENJI MADDEN
    HEART
    BRANDY
    P!NK
    MUSIQ SOULCHILD
    MILEY CYRUS
    AKON
    JORDIN SPARKS
    CELINE DION
    ROB THOMAS
    KATHARINE McPHEE
    JEFF BRIDGES
    RANDY JACKSON
    PATTI AUSTIN
    KID CUDI
    USHER
    WILL.I.AM
    KANYE WEST
    LL COOL J
    ISSAC SLADE (aka The Fray)
    SNOOP DOGG
    NICOLE RICHIE
    TREY SONGZ
    ETHAN BORTNICK
    TARYLL JACKSON
    TAJ JACKSON
    TJ JACKSON
    VINCE VAUGHN
    DRAKE
    FREDA PAYNE
    FAITH EVANS
    ROBIN THICKE
    RASHIDA JONES
    BARBRA STREISAND
    JIMMY JEAN LOUIS
    ENRIQUE IGLESIAS
    ZAC BROWN
    LIL WAYNE
    TONY BENNETT
    JOSH GROBAN
    SEAN GARRETT
    HARRY CONNICK, JR.
    AL JARDINE
    BONE THUGS AND HARMONY (BIZZY BONES)
    AR RAHMEN
    FERGIE
    MARY J. BLIGE
    ORIANTHI
    MANN
    NIPSEY HUSSLE
    IYAZ
    KEITH HARRIS
    NIKKA COSTA
    TONI BRAXTON
    FARNSWORTH BENTLEY
    PLAIN PAT
    IL TRIO




    Host: (Mega)





    Other Options:
    True HD > Ariana Grande - Focus [2015]
    HD > Aliz
    True HD > Britney Spears feat. Iggy Azalea - Pretty Girls [M3] [2015]
    True HD > Britney Spears - Perfume [2013]
    http://www.thecentralbox.net/true-hd...an-2016-a.html
    http://www.thecentralbox.net/true-hd...0p-2015-a.html
    http://www.thecentralbox.net/true-hd...0i-2007-a.html
    Last edited by Bruno Boni; Sep 30,2020 at 15:39.
    My Request List:
    Hidden Content

  2. #2

    Default

    thanks, I've been looking for this

Tags for this Thread

Posting Permissions

  • You may not post new threads
  • You may not post replies
  • You may not post attachments
  • You may not edit your posts
  •