Results 1 to 2 of 2
  1. #1

    Default The Rasmus - Guilty [2003]


    the_rasmus_-_guilty_(lpcm-mixm4sh-pal-here2stay).V0B



    Code:
    Format                         : MPEG-PS
    File size                      : 253 MiB
    Duration                       : 3 min 38 s
    Overall bit rate mode          : Variable
    Overall bit rate               : 9 718 kb/s
    Writing library                : http://
    
    Video
    ID                             : 224 (0xE0)
    Format                         : MPEG Video
    Format version                 : Version 2
    Format profile                 : [email protected]
    Format settings, BVOP          : Yes
    Format settings, Matrix        : Default
    Format settings, GOP           : M=2, N=8
    Format settings, picture struc : Frame
    Duration                       : 3 min 38 s
    Bit rate mode                  : Variable
    Bit rate                       : 8 000 kb/s
    Width                          : 720 pixels
    Height                         : 576 pixels
    Display aspect ratio           : 4:3
    Frame rate                     : 25.000 FPS
    Standard                       : PAL
    Color space                    : YUV
    Chroma subsampling             : 4:2:0
    Bit depth                      : 8 bits
    Scan type                      : Interlaced
    Scan order                     : Bottom Field First
    Compression mode               : Lossy
    Bits/(Pixel*Frame)             : 0.772
    Time code of first frame       : 00:00:00:00
    Time code source               : Group of pictures header
    GOP, Open/Closed               : Closed
    Stream size                    : 208 MiB (82%)
    Writing library                : http://
    Color primaries                : BT.601 PAL
    Transfer characteristics       : BT.470 System B, BT.470 System G
    Matrix coefficients            : BT.601
    
    Audio
    ID                             : 189 (0xBD)-160 (0xA0)
    Format                         : PCM
    Format settings, Endianness    : Big
    Format settings, Sign          : Signed
    Muxing mode                    : DVD-Video
    Duration                       : 3 min 38 s
    Bit rate mode                  : Constant
    Bit rate                       : 1 536 kb/s
    Channel(s)                     : 2 channels
    Sampling rate                  : 48.0 kHz
    Bit depth                      : 16 bits
    Stream size                    : 40.0 MiB (16%)
    
    Menu
    Video: MPEG2 Video 720x576 (4:3) 25fps [V: mpeg2 main, yuv420p, 720x576]
    Audio: LPCM 48000Hz stereo 1536kbps [A: pcm_dvd, 48000 Hz, 2 channels, s16, 1536 kb/s]
    Source: DVD-R MixM4SH


    MEGA - MEDIAFIRE



    By JesusMG

    (SINCE 2002)





    .

  2. #2

    Default

    gracias . excelente aporte

Tags for this Thread

Posting Permissions

  • You may not post new threads
  • You may not post replies
  • You may not post attachments
  • You may not edit your posts
  •