Results 1 to 4 of 4
  1. #1

    Default Beyoncé feat. Sean Paul - Baby Boy [HDTV 1080i] [2003]





    Name: Beyonce feat. Sean Paul - Baby Boy (HDTV 1080i) [2003]
    Year: 2003 Source: TV
    File Size: 558.90 MB Duration: 04:09 Format: MPEG-TS

    Video
    ID : 2048 (0x800)
    Menu ID : 1 (0x1)
    Format : MPEG Video
    Format version : Version 2
    Format profile : [email protected]
    Codec ID : 2
    Duration : 4mn 8s
    Bit rate mode : Variable
    Bit rate : 16.7 Mbps
    Maximum bit rate : 38.8 Mbps
    Width : 1 920 pixels
    Height : 1 080 pixels
    Display aspect ratio : 16:9
    Frame rate : 29.970 fps
    Standard : Component
    Color space : YUV
    Chroma subsampling : 4:2:0
    Bit depth : 8 bits
    Scan type : Interlaced
    Scan order : Top Field First
    Compression mode : Lossy

    Audio
    ID : 2049 (0x801)
    Menu ID : 1 (0x1)
    Format : AC-3
    Format/Info : Audio Coding 3
    Mode extension : CM (complete main)
    Format settings, Endianness : Big
    Codec ID : 129
    Duration : 4mn 8s
    Bit rate mode : Constant
    Bit rate : 384 Kbps
    Channel(s) : 2 channels
    Channel positions : Front: L R
    Sampling rate : 48.0 KHz
    Bit depth : 16 bits
    Compression mode : Lossy
    Stream size : 11.4 MiB (2%)


    Host: (Mega)





    Other Options:
    True HD > Beyonc
    True HD > Beyonc
    True HD > Beyonc
    http://www.thecentralbox.net/dvj-rem...0p-2015-a.html
    http://www.thecentralbox.net/true-hd...ts-2010-a.html
    http://www.thecentralbox.net/true-hd...an-2011-a.html
    http://www.thecentralbox.net/true-hd...20-1982-a.html
    http://www.thecentralbox.net/true-hd...20-1978-a.html
    Last edited by Bruno Boni; May 28,2020 at 13:57.
    My Request List:
    Hidden Content

  2. #2

    Default

    se ve weno.. gracias

  3. #3

    Thumbs up

    no se como bajar los videos.. aunque responda los mensajes. no se desbloquean..
    Quote Originally Posted by Bruno Boni View Post




    Name: Beyonce feat. Sean Paul - Baby Boy (HDTV 1080i) [2003]
    Year: 2003 Source: TV
    File Size: 558.90 MB Duration: 04:09 Format: MPEG-TS

    Video
    ID : 2048 (0x800)
    Menu ID : 1 (0x1)
    Format : MPEG Video
    Format version : Version 2
    Format profile : [email protected]
    Codec ID : 2
    Duration : 4mn 8s
    Bit rate mode : Variable
    Bit rate : 16.7 Mbps
    Maximum bit rate : 38.8 Mbps
    Width : 1 920 pixels
    Height : 1 080 pixels
    Display aspect ratio : 16:9
    Frame rate : 29.970 fps
    Standard : Component
    Color space : YUV
    Chroma subsampling : 4:2:0
    Bit depth : 8 bits
    Scan type : Interlaced
    Scan order : Top Field First
    Compression mode : Lossy

    Audio
    ID : 2049 (0x801)
    Menu ID : 1 (0x1)
    Format : AC-3
    Format/Info : Audio Coding 3
    Mode extension : CM (complete main)
    Format settings, Endianness : Big
    Codec ID : 129
    Duration : 4mn 8s
    Bit rate mode : Constant
    Bit rate : 384 Kbps
    Channel(s) : 2 channels
    Channel positions : Front: L R
    Sampling rate : 48.0 KHz
    Bit depth : 16 bits
    Compression mode : Lossy
    Stream size : 11.4 MiB (2%)


    Host: (Mega)

    ***Hidden content cannot be quoted.***

    ***Hidden content cannot be quoted.***

    Other Options:
    True HD > Beyonc
    True HD > Beyonc
    True HD > Beyonc
    http://www.thecentralbox.net/dvj-rem...0p-2015-a.html
    http://www.thecentralbox.net/true-hd...ts-2010-a.html
    http://www.thecentralbox.net/true-hd...an-2011-a.html
    http://www.thecentralbox.net/true-hd...20-1982-a.html
    http://www.thecentralbox.net/true-hd...20-1978-a.html

  4. #4
    Let's Celebrate! djstevens's Avatar

    Join Date
    Mar 21,2011
    Posts
    1,535
    Thanks
    5150

    Default

    Quote Originally Posted by KEKODJONTHESED View Post
    no se como bajar los videos.. aunque responda los mensajes. no se desbloquean..
    https://www.thecentralbox.net/suppor...tml#post511098
    Puedes leer esto. Gracias.

Tags for this Thread

Posting Permissions

  • You may not post new threads
  • You may not post replies
  • You may not post attachments
  • You may not edit your posts
  •