Results 1 to 1 of 1
  1. #1

    Default Laid Back - Sunshine Reggae (Thommy's Pop Show) [1983]



    Complete name : Laid Back - Sunshine Reggae (Thommy's Pop Show) [1983]
    Format : MPEG-PS
    File size : 159 MiB
    Duration : 3 min 43 s
    Overall bit rate : 5 997 kb/s


    Video
    ID : 224 (0xE0)
    Format : MPEG Video
    Format version : Version 2
    Format profile : [email protected]
    Format settings, BVOP : Yes
    Format settings, Matrix : Default
    Format settings, GOP : M=3, N=13
    Format settings, picture struc : Frame
    Duration : 3 min 43 s
    Bit rate mode : Variable
    Bit rate : 5 500 kb/s
    Width : 720 pixels
    Height : 576 pixels
    Display aspect ratio : 4:3
    Frame rate : 25.000 FPS
    Standard : PAL
    Color space : YUV
    Chroma subsampling : 4:2:0
    Bit depth : 8 bits
    Scan type : Interlaced
    Scan order : Top Field First
    Compression mode : Lossy
    Bits/(Pixel*Frame) : 0.530
    Time code of first frame : 01:10:23:24
    Time code source : Group of pictures header
    GOP, Open/Closed : Closed
    Stream size : 146 MiB (92%)

    Audio
    ID : 189 (0xBD)-128 (0x80)
    Format : AC-3
    Format/Info : Audio Coding 3
    Format settings, Endianness : Big
    Muxing mode : DVD-Video
    Duration : 3 min 43 s
    Bit rate mode : Constant
    Bit rate : 384 kb/s
    Channel(s) : 2 channels
    Channel positions : Front: L R
    Sampling rate : 48.0 kHz
    Frame rate : 31.250 FPS (1536 SPF)
    Bit depth : 16 bits
    Compression mode : Lossy
    Delay relative to video : -344 ms
    Stream size : 10.2 MiB (6%)


    HOST: YANDEX


    Last edited by hyland59; Jan 11,2020 at 18:08.

Tags for this Thread

Posting Permissions

  • You may not post new threads
  • You may not post replies
  • You may not post attachments
  • You may not edit your posts
  •