Results 1 to 1 of 1
  1. #1

    Default Eric Carmen - Never Gonna Fall In Love Again (The Midnight Special) [1976]



    Complete name : Eric Carmen - Never Gonna Fall In Love Again (The Midnight Special) [1976]
    Format : MPEG-PS
    File size : 279 MiB
    Duration : 4 min 6 s
    Overall bit rate mode : Constant
    Overall bit rate : 9 506 kb/s

    Video
    ID : 224 (0xE0)
    Format : MPEG Video
    Format version : Version 2
    Format profile : [email protected]
    Format settings, BVOP : Yes
    Format settings, Matrix : Default
    Format settings, GOP : M=3, N=12
    Duration : 4 min 6 s
    Bit rate mode : Constant
    Bit rate : 7 800 kb/s
    Width : 720 pixels
    Height : 480 pixels
    Display aspect ratio : 4:3
    Frame rate : 29.970 (30000/1001) FPS
    Standard : Component
    Color space : YUV
    Chroma subsampling : 4:2:0
    Bit depth : 8 bits
    Compression mode : Lossy
    Bits/(Pixel*Frame) : 0.753
    Time code of first frame : 00:00:00;00
    Time code source : Group of pictures header
    GOP, Open/Closed : Open
    GOP, Open/Closed of first fram : Closed
    Stream size : 229 MiB (82%)
    Writing library : (dvd5: Oct 27 2015)
    Color primaries : BT.601 NTSC
    Transfer characteristics : BT.601
    Matrix coefficients : BT.601

    Audio
    ID : 189 (0xBD)-160 (0xA0)
    Format : PCM
    Format settings, Endianness : Big
    Format settings, Sign : Signed
    Muxing mode : DVD-Video
    Duration : 4 min 6 s
    Bit rate mode : Constant
    Bit rate : 1 536 kb/s
    Channel(s) : 2 channels
    Sampling rate : 48.0 kHz
    Bit depth : 16 bits
    Stream size : 45.2 MiB (16%)


    HOST: YANDEX

    Last edited by hyland59; Jan 11,2020 at 18:06.

Tags for this Thread

Posting Permissions

  • You may not post new threads
  • You may not post replies
  • You may not post attachments
  • You may not edit your posts
  •