Results 1 to 1 of 1
  1. #1

    Default Eric Carmen - I Wanna Hear it From Your Lips (Show & Co mit Carlo) [1985]



    Complete name : Eric Carmen - I Wanna Hear it From Your Lips (Show & Co mit Carlo) [1985]
    Format : MPEG-PS
    File size : 201 MiB
    Duration : 3 min 18 s
    Overall bit rate mode : Variable
    Overall bit rate : 8 498 kb/s


    Video
    ID : 224 (0xE0)
    Format : MPEG Video
    Format version : Version 2
    Format profile : [email protected]
    Format settings, BVOP : No
    Format settings, Matrix : Default
    Format settings, GOP : N=12
    Duration : 3 min 18 s
    Bit rate mode : Variable
    Bit rate : 7 945 kb/s
    Width : 720 pixels
    Height : 576 pixels
    Display aspect ratio : 4:3
    Frame rate : 30.000 FPS
    Color space : YUV
    Chroma subsampling : 4:2:0
    Bit depth : 8 bits
    Scan type : Progressive
    Compression mode : Lossy
    Bits/(Pixel*Frame) : 0.639
    Time code of first frame : 00:00:00:00
    Time code source : Group of pictures header
    GOP, Open/Closed : Open
    Stream size : 188 MiB (93%)

    Audio
    ID : 189 (0xBD)-128 (0x80)
    Format : AC-3
    Format/Info : Audio Coding 3
    Format settings, Endianness : Big
    Muxing mode : DVD-Video
    Duration : 3 min 18 s
    Bit rate mode : Constant
    Bit rate : 384 kb/s
    Channel(s) : 2 channels
    Channel positions : Front: L R
    Sampling rate : 48.0 kHz
    Frame rate : 31.250 FPS (1536 SPF)
    Bit depth : 16 bits
    Compression mode : Lossy
    Stream size : 9.07 MiB (5%)


    HOST: YANDEX





    Last edited by hyland59; Jan 11,2020 at 18:05.

Tags for this Thread

Posting Permissions

  • You may not post new threads
  • You may not post replies
  • You may not post attachments
  • You may not edit your posts
  •