Complete name : Alan Parsons & Candy Dulfer - The Gold Bug (Live) [1995]
Format : MPEG-PS
File size : 126 MiB
Duration : 3 min 47 s
Overall bit rate : 4 637 kb/s


Video
ID : 224 (0xE0)
Format : MPEG Video
Format version : Version 2
Format profile : [email protected]
Format settings, BVOP : Yes
Format settings, Matrix : Default
Format settings, GOP : M=3, N=12
Format settings, picture struc : Frame
Duration : 3 min 47 s
Bit rate mode : Variable
Bit rate : 4 289 kb/s
Maximum bit rate : 9 579 kb/s
Width : 704 pixels
Height : 576 pixels
Display aspect ratio : 4:3
Frame rate : 25.000 FPS
Standard : PAL
Color space : YUV
Chroma subsampling : 4:2:0
Bit depth : 8 bits
Scan type : Interlaced
Scan order : Top Field First
Compression mode : Lossy
Bits/(Pixel*Frame) : 0.423
Time code of first frame : 00:57:38:22
Time code source : Group of pictures header
GOP, Open/Closed : Open
Stream size : 116 MiB (92%)
Color primaries : BT.601 PAL
Transfer characteristics : BT.470 System B, BT.470 System G
Matrix coefficients : BT.601

Audio
ID : 189 (0xBD)-128 (0x80)
Format : AC-3
Format/Info : Audio Coding 3
Format settings, Endianness : Big
Muxing mode : DVD-Video
Duration : 3 min 47 s
Bit rate mode : Constant
Bit rate : 256 kb/s
Channel(s) : 2 channels
Channel positions : Front: L R
Sampling rate : 48.0 kHz
Frame rate : 31.250 FPS (1536 SPF)
Bit depth : 16 bits
Compression mode : Lossy
Delay relative to video : -144 ms
Stream size : 6.93 MiB (6%)
Service kind : Complete Main

HOST: drive.google