Complete name : Geordie - Goodbye Love (German TV Top 75) [1975]
Format : MPEG-PS
File size : 213 MiB
Duration : 3 min 7 s
Overall bit rate : 9 547 kb/s
Writing library : (dvd5: Oct 19 2015)


Video
ID : 224 (0xE0)
Format : MPEG Video
Format version : Version 2
Format profile : [email protected]
Format settings, BVOP : Yes
Format settings, Matrix : Default
Format settings, GOP : Variable
Duration : 3 min 7 s
Bit rate mode : Variable
Bit rate : 7 821 kb/s
Maximum bit rate : 9 800 kb/s
Width : 720 pixels
Height : 576 pixels
Display aspect ratio : 4:3
Frame rate : 25.000 FPS
Standard : Component
Color space : YUV
Chroma subsampling : 4:2:0
Bit depth : 8 bits
Scan type : Progressive
Compression mode : Lossy
Bits/(Pixel*Frame) : 0.754
Time code of first frame : 00:00:00:00
Time code source : Group of pictures header
Stream size : 174 MiB (82%)
Writing library : (dvd5: Oct 19 2015)
Color primaries : BT.601 PAL
Transfer characteristics : BT.470 System B, BT.470 System G
Matrix coefficients : BT.601

Audio
ID : 189 (0xBD)-160 (0xA0)
Format : PCM
Format settings, Endianness : Big
Format settings, Sign : Signed
Muxing mode : DVD-Video
Duration : 3 min 7 s
Bit rate mode : Constant
Bit rate : 1 536 kb/s
Channel(s) : 2 channels
Sampling rate : 48.0 kHz
Bit depth : 16 bits
Stream size : 34.2 MiB (16%)

HOST: drive.google