Complete name : Laid Back - High Society Girl (Thommy's Pop Show) [1983]
Format : MPEG-PS
File size : 167 MiB
Duration : 3 min 53 s
Overall bit rate : 5 997 kb/s


Video
ID : 224 (0xE0)
Format : MPEG Video
Format version : Version 2
Format profile : [email protected]
Format settings, BVOP : Yes
Format settings, Matrix : Default
Format settings, GOP : M=3, N=13
Format settings, picture struc : Frame
Duration : 3 min 53 s
Bit rate mode : Variable
Bit rate : 5 500 kb/s
Width : 720 pixels
Height : 576 pixels
Display aspect ratio : 4:3
Frame rate : 25.000 FPS
Standard : PAL
Color space : YUV
Chroma subsampling : 4:2:0
Bit depth : 8 bits
Scan type : Interlaced
Scan order : Top Field First
Compression mode : Lossy
Bits/(Pixel*Frame) : 0.530
Time code of first frame : 01:14:07:01
Time code source : Group of pictures header
GOP, Open/Closed : Closed
Stream size : 153 MiB (92%)

Audio
ID : 189 (0xBD)-128 (0x80)
Format : AC-3
Format/Info : Audio Coding 3
Format settings, Endianness : Big
Muxing mode : DVD-Video
Duration : 3 min 53 s
Bit rate mode : Constant
Bit rate : 384 kb/s
Channel(s) : 2 channels
Channel positions : Front: L R
Sampling rate : 48.0 kHz
Frame rate : 31.250 FPS (1536 SPF)
Bit depth : 16 bits
Compression mode : Lossy
Delay relative to video : -352 ms
Stream size : 10.7 MiB (6%)


HOST: disk.yandex