Complete name : Ricky Martin - Living La Vida Loca (SNL) [1999]
Format : MPEG-PS
File size : 171 MiB
Duration : 4 min 8 s
Overall bit rate : 5 775 kb/s


Video
ID : 224 (0xE0)
Format : MPEG Video
Format version : Version 2
Format profile : [email protected]
Format settings, BVOP : Yes
Format settings, Matrix : Default
Format settings, GOP : M=3, N=13
Format settings, picture struc : Frame
Duration : 4 min 8 s
Bit rate mode : Variable
Bit rate : 5 212 kb/s
Maximum bit rate : 7 600 kb/s
Width : 720 pixels
Height : 480 pixels
Display aspect ratio : 4:3
Frame rate : 29.970 (30000/1001) FPS
Standard : NTSC
Color space : YUV
Chroma subsampling : 4:2:0
Bit depth : 8 bits
Scan type : Interlaced
Scan order : Top Field First
Compression mode : Lossy
Bits/(Pixel*Frame) : 0.503
Time code of first frame : 02:21:05;05
Time code source : Group of pictures header
GOP, Open/Closed : Open
Stream size : 154 MiB (90%)
Color primaries : BT.601 NTSC
Transfer characteristics : BT.601
Matrix coefficients : BT.601

Audio
ID : 189 (0xBD)-128 (0x80)
Format : AC-3
Format/Info : Audio Coding 3
Format settings, Endianness : Big
Muxing mode : DVD-Video
Duration : 4 min 8 s
Bit rate mode : Constant
Bit rate : 448 kb/s
Channel(s) : 6 channels
Channel positions : Front: L C R, Side: L R, LFE
Sampling rate : 48.0 kHz
Frame rate : 31.250 FPS (1536 SPF)
Bit depth : 16 bits
Compression mode : Lossy
Delay relative to video : 39 ms
Stream size : 13.3 MiB (8%)



HOST: drive.google