Complete name : Opus - Live Is Live (Dutch TopPop) [1985]
Format : MPEG-PS

File size : 215 MiB
Duration : 3 min 41 s
Overall bit rate : 8 160 kb/s


Video
ID : 224 (0xE0)
Format : MPEG Video
Format version : Version 2
Format profile : [email protected]
Format settings, BVOP : Yes
Format settings, Matrix : Custom
Format settings, GOP : M=3, N=12
Format settings, picture struc : Frame
Duration : 3 min 41 s
Bit rate mode : Variable
Bit rate : 6 461 kb/s
Maximum bit rate : 7 700 kb/s
Width : 720 pixels
Height : 576 pixels
Display aspect ratio : 4:3
Frame rate : 25.000 FPS
Standard : PAL
Color space : YUV
Chroma subsampling : 4:2:0
Bit depth : 8 bits
Scan type : Interlaced
Scan order : Top Field First
Compression mode : Lossy
Bits/(Pixel*Frame) : 0.623
Time code of first frame : 01:27:55:21
Time code source : Group of pictures header
GOP, Open/Closed : Closed
Stream size : 170 MiB (79%)
Color primaries : BT.601 PAL
Transfer characteristics : BT.470 System B, BT.470 System G
Matrix coefficients : BT.601

Audio
ID : 189 (0xBD)-160 (0xA0)
Format : PCM
Format settings, Endianness : Big
Format settings, Sign : Signed
Muxing mode : DVD-Video
Duration : 3 min 41 s
Bit rate mode : Constant
Bit rate : 1 536 kb/s
Channel(s) : 2 channels
Sampling rate : 48.0 kHz
Bit depth : 16 bits
Delay relative to video : -344 ms
Stream size : 40.6 MiB (19%)

HOST: drive.google