Complete name : Slade - My Baby Left Me-That's All Right (Disco) [1977]
Format : MPEG-PS
File size : 116 MiB
Duration : 2 min 36 s
Overall bit rate mode : Variable
Overall bit rate : 6 206 kb/s




Video
ID : 224 (0xE0)
Format : MPEG Video
Format version : Version 2
Format profile : [email protected]
Format settings, BVOP : Yes
Format settings, Matrix : Custom
Format settings, GOP : Variable
Format settings, picture struc : Frame
Duration : 2 min 36 s
Bit rate mode : Variable
Bit rate : 5 890 kb/s
Width : 720 pixels
Height : 576 pixels
Display aspect ratio : 4:3
Frame rate : 25.000 FPS
Standard : PAL
Color space : YUV
Chroma subsampling : 4:2:0
Bit depth : 8 bits
Scan type : Interlaced
Scan order : Top Field First
Compression mode : Lossy
Bits/(Pixel*Frame) : 0.568
Time code of first frame : 01:30:31:16
Time code source : Group of pictures header
Stream size : 110 MiB (95%)
Writing library : Ahead Nero

Audio
ID : 189 (0xBD)-128 (0x80)
Format : AC-3
Format/Info : Audio Coding 3
Format settings, Endianness : Big
Muxing mode : DVD-Video
Duration : 2 min 36 s
Bit rate mode : Constant
Bit rate : 192 kb/s
Channel(s) : 2 channels
Channel positions : Front: L R
Sampling rate : 48.0 kHz
Frame rate : 31.250 FPS (1536 SPF)
Bit depth : 16 bits
Compression mode : Lossy
Delay relative to video : -88 ms
Stream size : 3.59 MiB (3%)

HOST: GOOGLE