Complete name : Slade - Gudbuy T'Jane (TopPop) [1972]
Format : MPEG-PS
File size : 156 MiB
Duration : 3 min 28 s
Overall bit rate mode : Variable
Overall bit rate : 6 283 kb/s




Video
ID : 224 (0xE0)
Format : MPEG Video
Format version : Version 2
Format profile : [email protected]
Format settings, BVOP : Yes
Format settings, Matrix : Default
Format settings, GOP : Variable
Duration : 3 min 28 s
Bit rate mode : Variable
Bit rate : 5 902 kb/s
Width : 720 pixels
Height : 576 pixels
Display aspect ratio : 4:3
Frame rate : 25.000 FPS
Standard : PAL
Color space : YUV
Chroma subsampling : 4:2:0
Bit depth : 8 bits
Compression mode : Lossy
Bits/(Pixel*Frame) : 0.569
Time code of first frame : 00:00:00:00
Time code source : Group of pictures header
Stream size : 147 MiB (94%)
Writing library : http://
Color primaries : BT.601 PAL
Transfer characteristics : BT.470 System B, BT.470 System G
Matrix coefficients : BT.601

Audio
ID : 189 (0xBD)-128 (0x80)
Format : AC-3
Format/Info : Audio Coding 3
Format settings, Endianness : Big
Muxing mode : DVD-Video
Duration : 3 min 28 s
Bit rate mode : Constant
Bit rate : 256 kb/s
Channel(s) : 2 channels
Channel positions : Front: L R
Sampling rate : 48.0 kHz
Frame rate : 31.250 FPS (1536 SPF)
Bit depth : 16 bits
Compression mode : Lossy
Stream size : 6.36 MiB (4%)

HOST: GOOGLE