Complete name : Black - Sweetest Smile (TOTP) [1987]
Format : MPEG-PS
File size : 158 MiB
Duration : 4 min 10 s
Overall bit rate mode : Variable
Overall bit rate : 5 282 kb/s


Video
ID : 224 (0xE0)
Format : MPEG Video
Format version : Version 2
Format profile : [email protected]
Format settings, BVOP : No
Format settings, Matrix : Default
Format settings, GOP : N=12
Duration : 4 min 10 s
Bit rate mode : Variable
Bit rate : 4 921 kb/s
Maximum bit rate : 9 000 kb/s
Width : 720 pixels
Height : 576 pixels
Display aspect ratio : 4:3
Frame rate : 29.970 (30000/1001) FPS
Color space : YUV
Chroma subsampling : 4:2:0
Bit depth : 8 bits
Scan type : Progressive
Compression mode : Lossy
Bits/(Pixel*Frame) : 0.396
Time code of first frame : 00:10:06:03
Time code source : Group of pictures header
GOP, Open/Closed : Open
Stream size : 147 MiB (93%)

Audio
ID : 189 (0xBD)-128 (0x80)
Format : AC-3
Format/Info : Audio Coding 3
Commercial name : Dolby Digital
Muxing mode : DVD-Video
Duration : 4 min 10 s
Bit rate mode : Constant
Bit rate : 256 kb/s
Channel(s) : 2 channels
Channel layout : L R
Sampling rate : 48.0 kHz
Frame rate : 31.250 FPS (1536 SPF)
Compression mode : Lossy
Delay relative to video : -375 ms
Stream size : 7.64 MiB (5%)

HOST: YANDEX