Results 1 to 3 of 3
  1. #1

    Default Talk Talk - It's My Life (WWF Club) [1984]




    Complete name : Talk Talk - It's My Life (WWF Club) [1984]
    Format : MPEG-PS
    File size : 144 MiB
    Duration : 3 min 41 s
    Overall bit rate mode : Variable
    Overall bit rate : 5 441 kb/s


    Video
    ID : 224 (0xE0)
    Format : MPEG Video
    Format version : Version 2
    Format profile : [email protected]
    Format settings : CustomMatrix / BVOP
    Format settings, BVOP : Yes
    Format settings, Matrix : Custom
    Format settings, GOP : Variable
    Format settings, picture struc : Frame
    Duration : 3 min 41 s
    Bit rate mode : Variable
    Bit rate : 5 140 kb/s
    Width : 720 pixels
    Height : 576 pixels
    Display aspect ratio : 4:3
    Frame rate : 25.000 FPS
    Standard : PAL
    Color space : YUV
    Chroma subsampling : 4:2:0
    Bit depth : 8 bits
    Scan type : Interlaced
    Scan order : Top Field First
    Compression mode : Lossy
    Bits/(Pixel*Frame) : 0.496
    Time code of first frame : 00:21:14:21
    Time code source : Group of pictures header
    Stream size : 136 MiB (94%)

    Audio
    ID : 189 (0xBD)-128 (0x80)
    Format : AC-3
    Format/Info : Audio Coding 3
    Commercial name : Dolby Digital
    Muxing mode : DVD-Video
    Duration : 3 min 41 s
    Bit rate mode : Constant
    Bit rate : 192 kb/s
    Channel(s) : 2 channels
    Channel layout : L R
    Sampling rate : 48.0 kHz
    Frame rate : 31.250 FPS (1536 SPF)
    Compression mode : Lossy
    Delay relative to video : -216 ms
    Stream size : 5.07 MiB (4%)

    HOST: YANDEX


  2. #2

    Default Congratulations

    Thank you very much for your contributions, they are just pure quality, pure life!

  3. #3

    Default

    Quote Originally Posted by CATRIEL View Post
    Thank you very much for your contributions, they are just pure quality, pure life!
    Always welcome. Thank you!

Tags for this Thread

Posting Permissions

  • You may not post new threads
  • You may not post replies
  • You may not post attachments
  • You may not edit your posts
  •