Complete name : Showaddywaddy - Under The Moon Of Love (Ein Kessel Buntes) [1976]
Format : MPEG-PS
File size : 152 MiB
Duration : 3 min 7 s
Overall bit rate mode : Variable
Overall bit rate : 6 821 kb/s


Video
ID : 224 (0xE0)
Format : MPEG Video
Format version : Version 2
Format profile : [email protected]
Format settings : CustomMatrix / BVOP
Format settings, BVOP : Yes
Format settings, Matrix : Custom
Format settings, GOP : M=3, N=15
Format settings, picture struc : Frame
Duration : 3 min 7 s
Bit rate mode : Variable
Bit rate : 6 461 kb/s
Maximum bit rate : 7 750 kb/s
Width : 720 pixels
Height : 576 pixels
Display aspect ratio : 4:3
Frame rate : 25.000 FPS
Standard : PAL
Color space : YUV
Chroma subsampling : 4:2:0
Bit depth : 8 bits
Scan type : Interlaced
Scan order : Top Field First
Compression mode : Lossy
Bits/(Pixel*Frame) : 0.623
Time code of first frame : 10:01:28:20
Time code source : Group of pictures header
GOP, Open/Closed : Closed
Stream size : 144 MiB (95%)

Audio
ID : 189 (0xBD)-128 (0x80)
Format : AC-3
Format/Info : Audio Coding 3
Commercial name : Dolby Digital
Muxing mode : DVD-Video
Duration : 3 min 7 s
Bit rate mode : Constant
Bit rate : 224 kb/s
Channel(s) : 2 channels
Channel layout : L R
Sampling rate : 48.0 kHz
Frame rate : 31.250 FPS (1536 SPF)
Compression mode : Lossy
Delay relative to video : -160 ms
Stream size : 5.00 MiB (3%)

HOST: YANDEX