Complete name : Kiss - Crazy Crazy Nights (Top of the Pops) [1987]
Format : MPEG-PS
File size : 117 MiB
Duration : 2 min 41 s
Overall bit rate mode : Variable
Overall bit rate : 6 072 kb/s


Video
ID : 224 (0xE0)
Format : MPEG Video
Format version : Version 2
Format profile : [email protected]
Format settings, BVOP : No
Format settings, Matrix : Default
Format settings, GOP : N=12
Duration : 2 min 41 s
Bit rate mode : Variable
Bit rate : 5 695 kb/s
Width : 720 pixels
Height : 576 pixels
Display aspect ratio : 4:3
Frame rate : 30.000 FPS
Color space : YUV
Chroma subsampling : 4:2:0
Bit depth : 8 bits
Scan type : Progressive
Compression mode : Lossy
Bits/(Pixel*Frame) : 0.458
Time code of first frame : 00:12:25:23
Time code source : Group of pictures header
GOP, Open/Closed : Open
Stream size : 110 MiB (94%)

Audio
ID : 189 (0xBD)-128 (0x80)
Format : AC-3
Format/Info : Audio Coding 3
Commercial name : Dolby Digital
Muxing mode : DVD-Video
Duration : 2 min 41 s
Bit rate mode : Constant
Bit rate : 256 kb/s
Channel(s) : 2 channels
Channel layout : L R
Sampling rate : 48.0 kHz
Frame rate : 31.250 FPS (1536 SPF)
Compression mode : Lossy
Delay relative to video : -295 ms
Stream size : 4.94 MiB (4%)

HOST: YANDEX