Complete name : Dire Straits - Romeo & Juliet (Top of the Pops) [1981]
Format : MPEG-PS
File size : 185 MiB
Duration : 4 min 12 s
Overall bit rate mode : Variable
Overall bit rate : 6 154 kb/s


Video
ID : 224 (0xE0)
Format : MPEG Video
Commercial name : HDV 720p
Format version : Version 2
Format profile : [email protected] 1440
Format settings, BVOP : No
Format settings, Matrix : Default
Format settings, GOP : N=12
Duration : 4 min 12 s
Bit rate mode : Variable
Bit rate : 5 648 kb/s
Width : 1 280 pixels
Height : 720 pixels
Display aspect ratio : 16:9
Frame rate : 30.000 FPS
Color space : YUV
Chroma subsampling : 4:2:0
Bit depth : 8 bits
Scan type : Progressive
Compression mode : Lossy
Bits/(Pixel*Frame) : 0.204
Time code of first frame : 00:00:00:00
Time code source : Group of pictures header
GOP, Open/Closed : Open
Stream size : 170 MiB (92%)

Audio
ID : 189 (0xBD)-128 (0x80)
Format : AC-3
Format/Info : Audio Coding 3
Commercial name : Dolby Digital
Muxing mode : DVD-Video
Duration : 4 min 12 s
Bit rate mode : Constant
Bit rate : 384 kb/s
Channel(s) : 2 channels
Channel layout : L R
Sampling rate : 48.0 kHz
Frame rate : 31.250 FPS (1536 SPF)
Compression mode : Lossy
Stream size : 11.6 MiB (6%)

HOST: YANDEX