Results 1 to 2 of 2
  1. #1

    Default Level 42 - It's Over (TOTP) [1987]



    Complete name : Level 42 - It's Over (TOTP) [1987]


    Format : MPEG-PS
    File size : 189 MiB
    Duration : 4 min 17 s
    Overall bit rate mode : Variable
    Overall bit rate : 6 168 kb/s

    Video
    ID : 224 (0xE0)
    Format : MPEG Video
    Format version : Version 2
    Format profile : [email protected]
    Format settings, BVOP : No
    Format settings, Matrix : Default
    Format settings, GOP : N=12
    Duration : 4 min 16 s
    Bit rate mode : Variable
    Bit rate : 5 789 kb/s
    Maximum bit rate : 9 000 kb/s
    Width : 720 pixels
    Height : 576 pixels
    Display aspect ratio : 5:4
    Frame rate : 29.970 (30000/1001) FPS
    Color space : YUV
    Chroma subsampling : 4:2:0
    Bit depth : 8 bits
    Scan type : Progressive
    Compression mode : Lossy
    Bits/(Pixel*Frame) : 0.466
    Time code of first frame : 00:03:39:20
    Time code source : Group of pictures header
    GOP, Open/Closed : Open
    Stream size : 177 MiB (94%)

    Audio
    ID : 189 (0xBD)-128 (0x80)
    Format : AC-3
    Format/Info : Audio Coding 3
    Format settings, Endianness : Big
    Muxing mode : DVD-Video
    Duration : 4 min 17 s
    Bit rate mode : Constant
    Bit rate : 256 kb/s
    Channel(s) : 2 channels
    Channel positions : Front: L R
    Sampling rate : 48.0 kHz
    Frame rate : 31.250 FPS (1536 SPF)
    Bit depth : 16 bits
    Compression mode : Lossy
    Delay relative to video : -596 ms
    Stream size : 7.85 MiB (4%)

    HOST: YANDEX


  2. #2

    Thumbs up

    Excelente Aporte
    Twitter: @edsondj

    Instagram: @edsonvdjHidden Content

    Agradecer no cuesta nada..!!!


    AVISO: Si alguno de mis aportes está caido, por favor
    avisarme por MP

    NOTICE: If any of my input is down, please
    warn me by MP

Tags for this Thread

Posting Permissions

  • You may not post new threads
  • You may not post replies
  • You may not post attachments
  • You may not edit your posts
  •