Results 1 to 3 of 3
  1. #1


    Join Date
    Apr 02,2010
    Posts
    467
    Thanks
    634

    Default Queen - Bohemian Rhapsody (Live In Montreal 1981)

    Queen - Bohemian Rhapsody (Live In Montreal 1981) Blu Ray Rip HD.mp4
    Host: MF
    Password: No password

    Format : MPEG-4
    Format profile : Base Media
    Codec ID : isom (isom/iso2/mp41)
    File size : 549 MiB
    Duration : 5 min 44 s
    Overall bit rate mode : Variable
    Overall bit rate : 13.4 Mb/s
    Writing application : Lavf56.40.101

    Video
    ID : 1
    Format : MPEG-4 Visual
    Format settings, BVOP : No
    Format settings, QPel : No
    Format settings, GMC : No warppoints
    Format settings, Matrix : Default (H.263)
    Codec ID : mp4v-20
    Duration : 5 min 44 s
    Bit rate mode : Variable
    Bit rate : 13.2 Mb/s
    Maximum bit rate : 15.0 Mb/s
    Width : 1 920 pixels
    Height : 1 080 pixels
    Display aspect ratio : 16:9
    Frame rate mode : Constant
    Frame rate : 23.976 (23976/1000) FPS
    Color space : YUV
    Chroma subsampling : 4:2:0
    Bit depth : 8 bits
    Scan type : Progressive
    Compression mode : Lossy
    Bits/(Pixel*Frame) : 0.265
    Stream size : 543 MiB (99%)
    Writing library : Lavc56.60.100

    Audio
    ID : 2
    Format : AAC LC
    Format/Info : Advanced Audio Codec Low Complexity
    Codec ID : mp4a-40-2
    Duration : 5 min 44 s
    Bit rate mode : Variable
    Bit rate : 152 kb/s
    Maximum bit rate : 192 kb/s
    Channel(s) : 2 channels
    Channel layout : L R
    Sampling rate : 44.1 kHz
    Frame rate : 43.066 FPS (1024 SPF)
    Compression mode : Lossy
    Stream size : 6.25 MiB (1%)
    Default : Yes
    Alternate group : 1


    [URL="https://app.photobucket.com/u/dergiodaniel/p/d12afc92-71a7-484d-906e-3c906e192b4e"]





  • #2

    Post link

    podrias arreglar el enlace porfavor! saludos

  • #3

    Default

    Quote Originally Posted by dvjchano View Post
    podrias arreglar el enlace porfavor! saludos
    Arreglado

  • Tags for this Thread

    Posting Permissions

    • You may not post new threads
    • You may not post replies
    • You may not post attachments
    • You may not edit your posts
    •