Format : MPEG-TSFile size : 762 MiB
Duration : 3 min 37 s
Overall bit rate mode : Variable
Overall bit rate : 29.4 Mb/s


Video
ID : 308 (0x134)
Menu ID : 1 (0x1)
Format : MPEG Video
Format version : Version 2
Format profile : 4:2:[email protected]
Format settings : BVOP
Format settings, BVOP : Yes
Format settings, Matrix : Default
Format settings, GOP : M=2, N=16
Format settings, picture st : Frame
Codec ID : 2
Duration : 3 min 37 s
Bit rate mode : Variable
Bit rate : 27.7 Mb/s
Maximum bit rate : 29.2 Mb/s
Width : 1 920 pixels
Height : 1 080 pixels
Display aspect ratio : 16:9
Active Format Description : Full frame 16:9 image
Frame rate : 25.000 FPS
Color space : YUV
Chroma subsampling : 4:2:2
Bit depth : 8 bits
Scan type : Interlaced
Scan order : Top Field First
Compression mode : Lossy
Bits/(Pixel*Frame) : 0.535
Stream size : 717 MiB (94%)


Audio
ID : 256 (0x100)
Menu ID : 1 (0x1)
Format : MPEG Audio
Format version : Version 1
Format profile : Layer 2
Codec ID : 4
Duration : 3 min 37 s
Bit rate mode : Constant
Bit rate : 256 kb/s
Channel(s) : 2 channels
Sampling rate : 48.0 kHz
Frame rate : 41.667 FPS (1152 SPF)
Compression mode : Lossy
Delay relative to video : 28 ms
Stream size : 6.63 MiB (1%)
Language : English


Menu
ID : 32 (0x20)
Menu ID : 1 (0x1)
Duration : 3 min 37 s
List : 308 (0x134) (MPEG Video) / 256 (0x100) (MPEG Audio, English)
Language : / English
Maximum bit rate : 200000000
HOST: Google Drive