Complete name : Dusty Springfield - I Only Want to Be With You [1963]
Format : MPEG-PS
File size : 116 MiB
Duration : 2 min 33 s
Overall bit rate mode : Variable
Overall bit rate : 6 334 kb/s


Video
ID : 224 (0xE0)
Format : MPEG Video
Commercial name : HDV 720p
Format version : Version 2
Format profile : [email protected] 1440
Format settings, BVOP : No
Format settings, Matrix : Default
Format settings, GOP : N=12
Duration : 2 min 33 s
Bit rate mode : Variable
Bit rate : 5 952 kb/s
Width : 1 280 pixels
Height : 720 pixels
Display aspect ratio : 16:9
Frame rate : 30.000 FPS
Color space : YUV
Chroma subsampling : 4:2:0
Bit depth : 8 bits
Scan type : Progressive
Compression mode : Lossy
Bits/(Pixel*Frame) : 0.215
Time code of first frame : 00:00:00:00
Time code source : Group of pictures header
GOP, Open/Closed : Open
Stream size : 109 MiB (94%)

Audio
ID : 189 (0xBD)-128 (0x80)
Format : AC-3
Format/Info : Audio Coding 3
Format settings, Endianness : Big
Muxing mode : DVD-Video
Duration : 2 min 32 s
Bit rate mode : Constant
Bit rate : 256 kb/s
Channel(s) : 2 channels
Channel positions : Front: L R
Sampling rate : 48.0 kHz
Frame rate : 31.250 FPS (1536 SPF)
Bit depth : 16 bits
Compression mode : Lossy
Stream size : 4.66 MiB (4%)

HOST: GOOGLE