Results 1 to 1 of 1
  1. #1

    Default Barry Ryan - Head to My Toe [1972]



    Complete name : Barry Ryan - Head to My Toe [1972]

    Format : MPEG-PS
    File size : 62.7 MiB
    Duration : 1 min 43 s
    Overall bit rate mode : Variable
    Overall bit rate : 5 063 kb/s

    Video
    ID : 224 (0xE0)
    Format : MPEG Video
    Format version : Version 2
    Format profile : [email protected]
    Format settings, BVOP : Yes
    Format settings, Matrix : Custom
    Format settings, GOP : M=3, N=12
    Format settings, picture struc : Frame
    Duration : 1 min 43 s
    Bit rate mode : Variable
    Bit rate : 4 771 kb/s
    Width : 720 pixels
    Height : 576 pixels
    Display aspect ratio : 4:3
    Frame rate : 25.000 FPS
    Standard : PAL
    Color space : YUV
    Chroma subsampling : 4:2:0
    Bit depth : 8 bits
    Scan type : Interlaced
    Scan order : Top Field First
    Compression mode : Lossy
    Bits/(Pixel*Frame) : 0.460
    Time code of first frame : 10:03:49:24
    Time code source : Group of pictures header
    GOP, Open/Closed : Open
    Stream size : 59.1 MiB (94%)

    Audio
    ID : 189 (0xBD)-128 (0x80)
    Format : AC-3
    Format/Info : Audio Coding 3
    Format settings, Endianness : Big
    Muxing mode : DVD-Video
    Duration : 1 min 43 s
    Bit rate mode : Constant
    Bit rate : 192 kb/s
    Channel(s) : 2 channels
    Channel positions : Front: L R
    Sampling rate : 48.0 kHz
    Frame rate : 31.250 FPS (1536 SPF)
    Bit depth : 16 bits
    Compression mode : Lossy
    Delay relative to video : -232 ms
    Stream size : 2.38 MiB (4%)


    HOST: YANDEX

    Last edited by hyland59; Jul 29,2021 at 20:50.

Tags for this Thread

Posting Permissions

  • You may not post new threads
  • You may not post replies
  • You may not post attachments
  • You may not edit your posts
  •