Complete name : Beach Boys - You Need a Mess of Help to Stand Alone [1973]

Format : MPEG-PS
File size : 109 MiB
Duration : 3 min 30 s
Overall bit rate mode : Variable
Overall bit rate : 4 338 kb/s

Video
ID : 224 (0xE0)
Format : MPEG Video
Format version : Version 2
Format profile : [email protected]
Format settings, BVOP : Yes
Format settings, Matrix : Default
Format settings, GOP : M=5, N=26
Format settings, picture struc : Field
Duration : 3 min 30 s
Bit rate mode : Variable
Bit rate : 4 059 kb/s
Maximum bit rate : 9 000 kb/s
Width : 720 pixels
Height : 576 pixels
Display aspect ratio : 4:3
Frame rate : 25.000 FPS
Standard : PAL
Color space : YUV
Chroma subsampling : 4:2:0
Bit depth : 8 bits
Scan type : Interlaced
Scan order : Top Field First
Compression mode : Lossy
Bits/(Pixel*Frame) : 0.392
Time code of first frame : 10:13:45:10
Time code source : Group of pictures header
GOP, Open/Closed : Open
Stream size : 102 MiB (94%)
Color primaries : BT.601 PAL
Transfer characteristics : BT.470 System B, BT.470 System G
Matrix coefficients : BT.601

Audio
ID : 189 (0xBD)-128 (0x80)
Format : AC-3
Format/Info : Audio Coding 3
Format settings, Endianness : Big
Muxing mode : DVD-Video
Duration : 3 min 30 s
Bit rate mode : Constant
Bit rate : 192 kb/s
Channel(s) : 2 channels
Channel positions : Front: L R
Sampling rate : 48.0 kHz
Frame rate : 31.250 FPS (1536 SPF)
Bit depth : 16 bits
Compression mode : Lossy
Delay relative to video : 32 ms
Stream size : 4.82 MiB (4%)

HOST: YANDEX