Code:
Format                         : MPEG-4Format profile                 : Base Media
Codec ID                       : isom
File size                      : 71.6 MiB
Duration                       : 4mn 41s
Overall bit rate mode          : Variable
Overall bit rate               : 2 139 Kbps
Tagged date                    : UTC 2014-03-31 04:22:12
Writing application            : Lavf55.19.104


Video
ID                             : 1
Format                         : AVC
Format/Info                    : Advanced Video Codec
Format profile                 : [email protected]
Format settings, CABAC         : Yes
Format settings, ReFrames      : 5 frames
Codec ID                       : avc1
Codec ID/Info                  : Advanced Video Coding
Duration                       : 4mn 40s
Bit rate                       : 2 003 Kbps
Width                          : 1 280 pixels
Height                         : 720 pixels
Display aspect ratio           : 16:9
Frame rate mode                : Constant
Frame rate                     : 29.970 fps
Color space                    : YUV
Chroma subsampling             : 4:2:0
Bit depth                      : 8 bits
Scan type                      : Progressive
Bits/(Pixel*Frame)             : 0.073
Stream size                    : 67.1 MiB (94%)
Writing library                : x264 core 140 r2377M 1ca7bb9


Audio
ID                             : 2
Format                         : AAC
Format/Info                    : Advanced Audio Codec
Format profile                 : LC
Codec ID                       : 40
Duration                       : 4mn 41s
Duration_LastFrame             : -3ms
Bit rate mode                  : Variable
Bit rate                       : 128 Kbps
Maximum bit rate               : 3 000 Kbps
Channel(s)                     : 2 channels
Channel positions              : Front: L R
Sampling rate                  : 44.1 KHz
Compression mode               : Lossy
Delay relative to video        : 67ms
Stream size                    : 4.27 MiB (6%)