Q-Feel - Heroes Never Die [1982]


TELEGENICS
Year: 1982



Format : MPEG-PS
File size : 254 MiB
Duration : 3mn 40s
Overall bit rate mode : Variable
Overall bit rate : 9 670 Kbps


Video
ID : 224 (0xE0)
Format : MPEG Video
Format version : Version 2
Format settings, BVOP : Yes
Format settings, Matrix : Custom
Format settings, GOP : M=3, N=16
Duration : 3mn 40s
Bit rate mode : Variable
Bit rate : 7 942 Kbps
Width : 720 pixels
Height : 480 pixels
Display aspect ratio : 4:3
Frame rate : 29.970 fps
Standard : NTSC
Color space : YUV
Chroma subsampling : 4:2:0
Bit depth : 8 bits
Scan type : Progressive
Compression mode : Lossy
Bits/(Pixel*Frame) : 0.767
Time code of first frame : 00:00:00;00
Time code source : Group of pictures header
GOP, Open/Closed : Closed
Stream size : 209 MiB (82%)


Color primaries : BT.601 NTSC
Transfer characteristics : BT.601
Matrix coefficients : BT.601


Audio
ID : 189 (0xBD)-160 (0xA0)
Format : PCM
Format settings, Endianness : Big
Format settings, Sign : Signed
Muxing mode : DVD-Video
Duration : 3mn 40s
Bit rate mode : Constant
Bit rate : 1 536 Kbps
Channel(s) : 2 channels
Sampling rate : 48.0 KHz
Bit depth : 16 bits
Delay relative to video : 2ms
Stream size : 40.4 MiB (16%)